General

Unique ID : 337527497500840148389028940649006550985 (0xFDED6E7372AB78BB36D87AD9A70ECFC9)
Complete name : \Tandem 2011\Tandem.2011.1080p.WEB-DL.AAC.x264.mkv
Format : Matroska
Format version : Version 4
File size : 457 MiB
Duration : 12 min 35 s
Overall bit rate : 5 080 kb/s
Encoded date : UTC 2022-01-04 02:21:32
Writing application : mkvmerge v63.0.0 ('Everything') 64-bit
Writing library : libebml v1.4.2 + libmatroska v1.6.4

Video

ID : 1
Format : AVC
Format/Info : Advanced Video Codec
Format profile : [email protected]
Format settings : CABAC / 5 Ref Frames
Format settings, CABAC : Yes
Format settings, Reference frames : 5 frames
Codec ID : V_MPEG4/ISO/AVC
Duration : 12 min 35 s
Bit rate : 4 941 kb/s
Width : 1 920 pixels
Height : 1 080 pixels
Display aspect ratio : 16:9
Frame rate mode : Constant
Frame rate : 25.000 FPS
Color space : YUV
Chroma subsampling : 4:2:0
Bit depth : 8 bits
Scan type : Progressive
Bits/(Pixel*Frame) : 0.095
Stream size : 445 MiB (97%)
Writing library : x264 core 157 r10 d4099dd
Encoding settings : cabac=1 / ref=5 / deblock=1:0:0 / analyse=0x3:0x113 / me=hex / subme=8 / psy=1 / psy_rd=1.00:0.00 / mixed_ref=1 / me_range=16 / chroma_me=1 / trellis=2 / 8x8dct=1 / cqm=0 / deadzone=21,11 / fast_pskip=1 / chroma_qp_offset=-2 / threads=34 / lookahead_threads=5 / sliced_threads=0 / nr=0 / decimate=1 / interlaced=0 / bluray_compat=0 / stitchable=1 / constrained_intra=0 / bframes=3 / b_pyramid=2 / b_adapt=2 / b_bias=0 / direct=3 / weightb=1 / open_gop=0 / weightp=2 / keyint=infinite / keyint_min=25 / scenecut=40 / intra_refresh=0 / rc_lookahead=50 / rc=crf / mbtree=1 / crf=20.0 / qcomp=0.60 / qpmin=5 / qpmax=69 / qpstep=4 / vbv_maxrate=5500 / vbv_bufsize=15000 / crf_max=0.0 / nal_hrd=none / filler=0 / ip_ratio=1.40 / aq=1:1.00
Default : Yes
Forced : No
Color range : Limited
Color primaries : BT.709
Transfer characteristics : BT.709
Matrix coefficients : BT.709

Audio

ID : 2
Format : AAC LC
Format/Info : Advanced Audio Codec Low Complexity
Codec ID : A_AAC-2
Duration : 12 min 35 s
Bit rate : 137 kb/s
Channel(s) : 2 channels
Channel layout : L R
Sampling rate : 48.0 kHz
Frame rate : 46.875 FPS (1024 SPF)
Compression mode : Lossy
Stream size : 12.3 MiB (3%)
Default : Yes
Forced : No

Text #1

ID : 3
Format : S_TEXT/WEBVTT
Codec ID : S_TEXT/WEBVTT
Duration : 4 min 25 s
Bit rate : 11 b/s
Count of elements : 15
Stream size : 398 Bytes (0%)
Language : English
Default : Yes
Forced : No

Text #2

ID : 4
Format : S_TEXT/WEBVTT
Codec ID : S_TEXT/WEBVTT
Duration : 7 min 12 s
Bit rate : 10 b/s
Count of elements : 17
Stream size : 572 Bytes (0%)
Language : French
Default : Yes
Forced : No

Text #3

ID : 5
Format : S_TEXT/WEBVTT
Codec ID : S_TEXT/WEBVTT
Duration : 11 min 49 s
Bit rate : 9 b/s
Count of elements : 18
Stream size : 859 Bytes (0%)
Language : Greek
Default : Yes
Forced : No

Text #4

ID : 6
Format : S_TEXT/WEBVTT
Codec ID : S_TEXT/WEBVTT
Duration : 7 min 12 s
Bit rate : 9 b/s
Count of elements : 17
Stream size : 533 Bytes (0%)
Language : Spanish
Default : Yes
Forced : No